Planets Sun Sun Sun
Статистика раздачи
Автор: mari | Размер: 1.46 ГБ | Добавлен: 04 апр 2020
Скачать торрент
Скачать торрент

СообщениеДобавлено: 04 апр 2020 

Бладшот / Bloodshot

Перевод: Профессиональный (полное дублирование) iTunes, cубтитры: отсутствуют
Формат: WEBDLRip-AVC, MKV, H.264, AC3
Страна: США, Китай
Режиссер: Дэйв Уилсон
Жанр: фантастика, боевик
Продолжительность: 01:49:20
Год выпуска: 2020
В ролях: Вин Дизель, Сэм Хьюэн, Эйса Гонсалес, Гай Пирс, Талула Райли, Тоби Кеббелл, Ламорн Моррис, Йоуханнес Хёйкьюр Йоуханнессон, Сиддхартх Дхананджай, Алекс Эрнандез

Описание: Военный Рэй Гаррисон возвращается из очередной горячей точки к любимой красавице-жене. Супруги проводят отпуск в Европе, но счастье длится недолго — террористы, не сумев вытянуть из Рэя нужную им информацию, убивают жену, а затем и его самого. Но вскоре корпорация RST возвращает его к жизни. Армия нанороботов в крови превратила Рэя в бессмертного Бладшота, и теперь солдат наделен сверхсилой и способностью мгновенно самоисцеляться, вот только память оставляет желать лучшего. Но вскоре воспоминания о последних мгновениях жизни возвращаются, и Бладшот отправляется мстить за смерть жены.



Видео: 1024x432 (2.40:1), 23.976 fps, AVC MPEG4 (x264), , ~1532 kbps avg, 0.144 bit/pixel
Аудио: 48 kHz, AC3 Dolby Digital, 3/2 (L,C,R,l,r) + LFE ch, ~384 kbps
General
Unique ID : 25514561770277474300409929011014956868 (0x1331ED04B5F02EF185305C751F1C7744)
Complete name : C:\Users\123\Desktop\Bladshot.2020.WEB-DLRip-AVC_[tfile.ru].mkv
Format : Matroska
Format version : Version 4 / Version 2
File size : 1.46 GiB
Duration : 1h 49mn
Overall bit rate mode : Constant
Overall bit rate : 1 916 Kbps
Movie name : Bloodshot 2020 WEB-DLRip-AVC.ExKinoRay & grab777
Encoded date : UTC 2020-03-29 14:55:12
Writing application : Lavf56.36.100
Writing library : Lavf56.36.100

Video
ID : 2
Format : AVC
Format/Info : Advanced Video Codec
Format profile :
Format settings, CABAC : Yes
Format settings, ReFrames : 2 frames
Format settings, GOP : M=1, N=25
Codec ID : V_MPEG4/ISO/AVC
Duration : 1h 49mn
Bit rate mode : Constant
Bit rate : 1 532 Kbps
Width : 1 024 pixels
Height : 432 pixels
Display aspect ratio : 2.40:1
Frame rate mode : Constant
Frame rate : 23.976 fps
Color space : YUV
Chroma subsampling : 4:2:0
Bit depth : 8 bits
Scan type : Progressive
Bits/(Pixel*Frame) : 0.144
Stream size : 1.14 GiB (78%)
Title : Rip by grab777
Language : English
Default : Yes
Forced : No
DURATION : 01:49:20.059000000
NUMBER_OF_FRAMES : 157284
NUMBER_OF_BYTES : 2586083940
_STATISTICS_WRITING_APP : mkvmerge v7.3.0 (''Nouages'') 64bit built on Oct 22 2014 18:53:34
_STATISTICS_WRITING_DATE_UTC : 2020-03-29 14:55:12
_STATISTICS_TAGS : BPS DURATION NUMBER_OF_FRAMES NUMBER_OF_BYTES

Audio
ID : 1
Format : AC-3
Format/Info : Audio Coding 3
Mode extension : CM (complete main)
Format settings, Endianness : Big
Codec ID : A_AC3
Duration : 1h 49mn
Bit rate mode : Constant
Bit rate : 384 Kbps
Channel(s) : 6 channels
Channel positions : Front: L C R, Side: L R, LFE
Sampling rate : 48.0 KHz
Bit depth : 32 bits
Compression mode : Lossy
Stream size : 300 MiB (20%)
Title : Dub (iTunes)
Language : Russian
Default : Yes
Forced : No
DURATION : 01:49:20.064000000
NUMBER_OF_FRAMES : 205002
NUMBER_OF_BYTES : 314883072
_STATISTICS_WRITING_APP : mkvmerge v7.3.0 (''Nouages'') 64bit built on Oct 22 2014 18:53:34
_STATISTICS_WRITING_DATE_UTC : 2020-03-29 14:55:12
_STATISTICS_TAGS : BPS DURATION NUMBER_OF_FRAMES NUMBER_OF_BYTES










   Похожие торренты   Размер 
В этой теме нет новых непрочитанных сообщений. Discovery: Тайны боевых искусств (Восточные единоборства) (4 серии из 13) / Fight Quest (Sztuki walki) (Чак Смит / Chuck Smith) [2007, документальный, спорт, HDRip-AVC] DUB

2.91 ГБ

В этой теме нет новых непрочитанных сообщений. Лучшие в искусстве борьбы / The Best of the Martial Arts Films (Сандра Вентрауб) [1990, Боевик, документальный, DVDRip]

1.57 ГБ

В этой теме нет новых непрочитанных сообщений. Bellator 136: Brooks vs. Jansen / Уилл Брукс - Дэйв Джансен / Основные бои [10.04.2015, MMA, Спорт 1HD, HDTVRip 720p] / Бокс

3.46 ГБ

В этой теме нет новых непрочитанных сообщений. Топ 20 Лучших голов чемпионатов мира и чемпионатов Европы [2002-2016] [2017, HDTVRip-AVC, SATRip-AVC, VHSRip-AVC]

3.4 ГБ

В этой теме нет новых непрочитанных сообщений. Мария Шарапова: Смысл / Maria Sharapova: The Point / Матч! HD [2017, документальный, биография, спорт, теннис, WEBRip 720p] DUB

1.6 ГБ

В этой теме нет новых непрочитанных сообщений. Vyacheslav Glazkov vs Garrett Wilson / Вячеслав Глазков - Гарретт Уилсон [16.11.2013, Бокс, IPTVRip] / Бокс

638.13 МБ

В этой теме нет новых непрочитанных сообщений. NBA 2019-2020 / RS / 17.01.2020 / Portland Trail Blazers @ Dallas Mavericks / Виасат Спорт HD [Баскетбол, 17.01.2020, IPTV (1080р)]

3.47 ГБ




Вы не можете начинать темы
Вы не можете отвечать на сообщения
Вы не можете редактировать свои сообщения
Вы не можете удалять свои сообщения
Вы не можете добавлять вложения

Перейти:  
 Вход
ppkBB3cker v.2 © 2008-2014 @ PPK
[ Time : 0.025s | 17 Queries | GZIP : Off ]

Для правообладателей, рекламодателей и роскомнадзора: rstracker[собачка]yandex.ru
cron