Planets Sun Sun Sun
Статистика раздачи
Автор: mari | Размер: 2.17 ГБ | Добавлен: 13 янв 2020
Скачать торрент
Скачать торрент

СообщениеДобавлено: 13 янв 2020 

Лыжные гонки / Кубок мира 2019-2020 / Дрезден (Германия). Спринт


Перевод: Русский, Английский, cубтитры: отсутствуют
Формат: HDTVRip 720p, MKV, H.264, AC3
Страна: Германия
Вид спорта: Лыжные гонки
Продолжительность: 01:08:54
Дата эфира: 11.01.2020

Комментатор: Сергей Курдюков

Описание: Лыжные гонки. Кубок мира 2019-2020. Дрезден (Германия). Спринт.

Видео: 1280x720 (16:9), 50,000 fps, AVC (х264), , 4028 Кбит/сек, ~ 0.087 bit/pixel
Аудио #1: Русский 48 kHz, AC3 Dolby Digital, 2/0 (L,R) ch, ~192.00 kbps avg
Аудио #2: Английский 48 kHz, AC3 Dolby Digital, 2/0 (L,R) ch, ~192.00 kbps avg

General
Unique ID : 134442803210447960333993462711795668325 (0x6524BDF70E847FDE4EB6871366415565)
Complete name : W:\торрент\Лыжные гонки. Кубок мира 2019-2020. Дрезден (Германия). Спринт.mkv
Format : Matroska
Format version : Version 2
File size : 2.17 GiB
Duration : 1 h 8 min
Overall bit rate : 4 502 kb/s
Writing application : Lavf54.63.104
Writing library : Lavf54.63.104

Video
ID : 1
Format : AVC
Format/Info : Advanced Video Codec
Format profile :
Format settings : CABAC / 4 Ref Frames
Format settings, CABAC : Yes
Format settings, Reference frames : 4 frames
Codec ID : V_MPEG4/ISO/AVC
Duration : 1 h 8 min
Bit rate : 4 028 kb/s
Width : 1 280 pixels
Height : 720 pixels
Display aspect ratio : 16:9
Frame rate mode : Constant
Frame rate : 50.000 FPS
Color space : YUV
Chroma subsampling : 4:2:0
Bit depth : 8 bits
Scan type : Progressive
Bits/(Pixel*Frame) : 0.087
Stream size : 1.94 GiB (89%)
Default : No
Forced : No

Audio #1
ID : 2
Format : AC-3
Format/Info : Audio Coding 3
Commercial name : Dolby Digital
Codec ID : A_AC3
Duration : 1 h 8 min
Bit rate mode : Constant
Bit rate : 192 kb/s
Channel(s) : 2 channels
Channel layout : L R
Sampling rate : 48.0 kHz
Frame rate : 31.250 FPS (1536 SPF)
Compression mode : Lossy
Stream size : 94.6 MiB (4%)
Language : Russian
Service kind : Complete Main
Default : Yes
Forced : No

Audio #2
ID : 3
Format : AC-3
Format/Info : Audio Coding 3
Commercial name : Dolby Digital
Codec ID : A_AC3
Duration : 1 h 8 min
Bit rate mode : Constant
Bit rate : 192 kb/s
Channel(s) : 2 channels
Channel layout : L R
Sampling rate : 48.0 kHz
Frame rate : 31.250 FPS (1536 SPF)
Compression mode : Lossy
Stream size : 94.6 MiB (4%)
Language : English
Service kind : Complete Main
Default : No
Forced : No







   Похожие торренты   Размер 
В этой теме нет новых непрочитанных сообщений. Лыжные гонки / Кубок мира 2019-2020 / Дрезден (Германия) / Командный спринт. Финалы / Eurosport 2 HD [Лыжные гонки, 12.01.2020, HDTVRip (720p), RU/ENG]

1.51 ГБ

В этой теме нет новых непрочитанных сообщений. Лыжные гонки / Кубок мира 2019-2020 / Тур де Ски. Валь-ди-Фьемме (Италия) / Спринт / Eurosport 1 HD [Лыжные гонки, 04.01.2020, HDTVRip (720p), RU/ENG]

3.07 ГБ

В этой теме нет новых непрочитанных сообщений. Лыжные гонки / Кубок мира 2019-2020 / Тур де Ски. Ленцерхайде (Швейцария) / Спринт / Eurosport 2 HD [Лыжные гонки, 29.12.2019, HDTVRip (720p), RU/ENG]

3.21 ГБ

В этой теме нет новых непрочитанных сообщений. Лыжные гонки / Кубок мира 2019-2020 / Тур де Ски. Тоблах (Италия) / Мужчины. Гонка преследования 15 км / Eurosport 1 HD [Лыжные гонки, 01.01.2020, HDTVRip (720p), RU/ENG]

1.43 ГБ

В этой теме нет новых непрочитанных сообщений. Лыжные гонки / Кубок мира 2019-2020 / Тур де Ски. Тоблах (Италия) / Женщины. Гонка преследования 10 км / Eurosport 1 HD [Лыжные гонки, 01.01.2020, HDTVRip (720p), RU/ENG]

1.3 ГБ

В этой теме нет новых непрочитанных сообщений. Лыжные гонки / Кубок мира 2019-2020 / Тур де Ски. Валь-ди-Фьемме (Италия) / Женщины. Масс-старт 10 км / Eurosport 1 HD [Лыжные гонки, 03.01.2020, HDTVRip (720p), RU/ENG]

1.28 ГБ

В этой теме нет новых непрочитанных сообщений. Лыжные гонки / Кубок мира 2019-2020 / Тур де Ски. Валь-ди-Фьемме (Италия) / Мужчины. Масс-старт 15 км / Eurosport 1 HD [Лыжные гонки, 03.01.2020, HDTVRip (720p), RU/ENG]

1.22 ГБ




Вы не можете начинать темы
Вы не можете отвечать на сообщения
Вы не можете редактировать свои сообщения
Вы не можете удалять свои сообщения
Вы не можете добавлять вложения

Перейти:  
 Вход
ppkBB3cker v.2 © 2008-2014 @ PPK
[ Time : 0.022s | 19 Queries | GZIP : Off ]

Для правообладателей, рекламодателей и роскомнадзора: rstracker[собачка]yandex.ru
cron