img
Planets Sun Sun Sun
Статистика раздачи
Автор: mari | Размер: 2.42 ГБ | Добавлен: 02 дек 2019
Скачать торрент
Скачать торрент

СообщениеДобавлено: 02 дек 2019 

Биатлон / Кубок мира 2019-20 / 1-й этап / Эстерсунд (Швеция) / Смешанная эстафета


Перевод: Русский, cубтитры: отсутствуют
Формат: HDTVRip 720р, MKV, H.264, AC3
Страна: Швеция
Вид спорта: Биатлон
Продолжительность: 01:17:02
Дата эфира: 30.11.2019

Комментатор: Сергей Курдюков

Описание: Кубок мира 2019-20. 1-й этап. Эстерсунд (Швеция). Смешанная эстафета.

Видео: 1280x720 (16:9), 50,000 fps, AVC (х264), , 4030 Кбит/сек, ~ 0.087 bit/pixel
Аудио: 48 kHz, AC3 Dolby Digital, 2/0 (L,R) ch, ~192.00 kbps avg

General
Unique ID : 176353640949768980931152281519511928153 (0x84AC79CD6B229C64E9A3842339897D59)
Complete name : W:\торрент\Биатлон КМ 19-20 Эстерсунд Смешанная эстафета.mkv
Format : Matroska
Format version : Version 2
File size : 2.42 GiB
Duration : 1 h 17 min
Overall bit rate : 4 504 kb/s
Writing application : Lavf54.63.104
Writing library : Lavf54.63.104

Video
ID : 1
Format : AVC
Format/Info : Advanced Video Codec
Format profile :
Format settings : CABAC / 4 Ref Frames
Format settings, CABAC : Yes
Format settings, Reference frames : 4 frames
Codec ID : V_MPEG4/ISO/AVC
Duration : 1 h 17 min
Bit rate : 4 030 kb/s
Width : 1 280 pixels
Height : 720 pixels
Display aspect ratio : 16:9
Frame rate mode : Constant
Frame rate : 50.000 FPS
Color space : YUV
Chroma subsampling : 4:2:0
Bit depth : 8 bits
Scan type : Progressive
Bits/(Pixel*Frame) : 0.087
Stream size : 2.17 GiB (89%)
Default : No
Forced : No

Audio
ID : 2
Format : AC-3
Format/Info : Audio Coding 3
Commercial name : Dolby Digital
Codec ID : A_AC3
Duration : 1 h 17 min
Bit rate mode : Constant
Bit rate : 192 kb/s
Channel(s) : 2 channels
Channel layout : L R
Sampling rate : 48.0 kHz
Frame rate : 31.250 FPS (1536 SPF)
Compression mode : Lossy
Stream size : 106 MiB (4%)
Language : Russian
Service kind : Complete Main
Default : Yes
Forced : No







   Похожие торренты   Размер 
В этой теме нет новых непрочитанных сообщений. Биатлон / Кубок Мира 2017-18. 1-й этап. Эстерсунд (Швеция). Одиночная смешанная эстафета / Eurosport 1 [Биатлон, 26.11.2017, SATRip-AVC]

583.59 МБ

В этой теме нет новых непрочитанных сообщений. Биатлон / Кубок Мира 2017-18. 1-й этап. Эстерсунд (Швеция). Одиночная смешанная эстафета / Eurosport 1 HD [Биатлон, 26.11.2017, HDTV (1080i), RU]

3.25 ГБ

В этой теме нет новых непрочитанных сообщений. Биатлон / Кубок Мира 2017-18. 1-й этап. Эстерсунд (Швеция). Смешанная эстафета 2x6 + 2x7,5 км / Eurosport 1 HD [Биатлон, 26.11.2017, HDTV (1080i), RU]

6.51 ГБ

В этой теме нет новых непрочитанных сообщений. Биатлон / Кубок Мира 2017-18. 1-й этап. Эстерсунд (Швеция). Смешанная эстафета 2x6 + 2x7,5 км / Eurosport 1 [Биатлон, 26.11.2017, SATRip-AVC]

1.03 ГБ

В этой теме нет новых непрочитанных сообщений. Биатлон / Кубок Мира 2016-17. 1-й этап. Эстерсунд (Швеция). Одиночная смешанная эстафета.[Биатлон, 27.11.2016, Eurosport 1 HD, (RU) Stream/1080i, TS/H.264]

1.56 ГБ

В этой теме нет новых непрочитанных сообщений. Биатлон / Кубок Мира 2017-18. 1-й этап. Эстерсунд (Швеция). Одиночная смешанная эстафета / Матч! ТВ HD [Биатлон, 26.11.2017, HDTVRip, RU]

714.59 МБ

В этой теме нет новых непрочитанных сообщений. Биатлон / Кубок Мира 2017-18. 1-й этап. Эстерсунд (Швеция). Смешанная эстафета 2x6 + 2x7,5 км / Матч! ТВ HD [Биатлон, 26.11.2017, HDTVRip, RU]

1.12 ГБ




Вы не можете начинать темы
Вы не можете отвечать на сообщения
Вы не можете редактировать свои сообщения
Вы не можете удалять свои сообщения
Вы не можете добавлять вложения

Перейти:  
 Вход
ppkBB3cker v.2 © 2008-2014 @ PPK
[ Time : 0.024s | 17 Queries | GZIP : Off ]

Для правообладателей, рекламодателей и роскомнадзора: rstracker[собачка]yandex.ru
cron