Planets Sun Sun Sun
Статистика раздачи
Автор: mari | Размер: 1.96 ГБ | Добавлен: 14 авг 2019
Скачать торрент
Скачать торрент

СообщениеДобавлено: 14 авг 2019 

Формула 1: 2000, 11 этап, Гран При Германии, Хокенхайм / Formula 1: 2000, Round 11, Grosser Mobil 1 Preis von Deutschland


Трансляция: #9 Wide World of Sports + PTP (вставки)
Содержание: обзор квалификации; гонка; пресс-конференция; ролик (для поклонников Deep Purple =D)
Комментарий: на английском языке + Алексей Попов и Оксана Косаченко cубтитры: отсутствуют
Формат: VHSRip, MKV, x264, AC3
Страна: Германия
Жанр: автоспорт
Продолжительность: 01:58:51
Год выпуска: 30 / 07 / 2000
Описание: Феноменальная гонка. До последнего момента не ясно, кто же станет победителем Гран При...
Этап: 11
Гонка: 657
Длина круга: 6 825 м
Количество кругов: 45
Дистанция: 307 125 м
Погода: Облачно, тепло, влажно
Видео: 768x576 (4:3), 25 fps, x264 core 112, Bit rate : 1 797 Kbps, 0.173 Bits/(Pixel*Frame)

Аудио: 48.0 KHz, AC-3, 2 ch, 256 Kbps
--------------------
Информация о файле:
--------------------
\f1-11-2000.mkv
General
Complete name :f1-11-2000.mkv
Format : Matroska
File size : 1.96 GiB
Duration : 1h 58mn
Overall bit rate : 2 355 Kbps
Writing application : HandBrake 0.9.5
Writing library : libmkv 0.6.4.1
Video #1
ID : 1
Format : AVC
Format/Info : Advanced Video Codec
Format profile :
Format settings, CABAC : Yes
Format settings, ReFrames : 4 frames
Muxing mode : Container profile=Unknown@3.0
Codec ID : V_MPEG4/ISO/AVC
Duration : 1h 58mn
Bit rate : 1 797 Kbps
Nominal bit rate : 1 836 Kbps
Width : 720 pixels
Height : 576 pixels
Display aspect ratio : 4:3
Frame rate mode : Variable
Frame rate : 25.000 fps
Standard : PAL
Resolution : 8 bits
Colorimetry : 4:2:0
Scan type : Progressive
Bits/(Pixel*Frame) : 0.173
Stream size : 1.49 GiB (76%)
Writing library : x264 core 112
Encoding settings : cabac=1 / ref=3 / deblock=1:0:0 / analyse=0x3:0x113 / me=hex / subme=7 / psy=1 / psy_rd=1.00:0.00 / mixed_ref=1 / me_range=16 / chroma_me=1 / trellis=1 / 8x8dct=1 / cqm=0 / deadzone=21,11 / fast_pskip=1 / chroma_qp_offset=-2 / threads=3 / sliced_threads=0 / nr=0 / decimate=1 / interlaced=0 / constrained_intra=0 / bframes=3 / b_pyramid=2 / b_adapt=2 / b_bias=0 / direct=1 / weightb=1 / open_gop=0 / weightp=2 / keyint=250 / keyint_min=24 / scenecut=40 / intra_refresh=0 / rc_lookahead=50 / rc=2pass / mbtree=1 / bitrate=1836 / ratetol=1.0 / qcomp=0.60 / qpmin=3 / qpmax=51 / qpstep=4 / cplxblur=20.0 / qblur=0.5 / ip_ratio=1.40 / aq=1:1.00
Color primaries : BT.601-6 525, BT.1358 525, BT.1700 NTSC, SMPTE 170M
Transfer characteristics : BT.709-5, BT.1361
Matrix coefficients : BT.601-6 525, BT.1358 525, BT.1700 NTSC, SMPTE 170M
Audio #2
ID : 2
Format : AC-3
Format/Info : Audio Coding 3
Codec ID : A_AC3
Duration : 1h 58mn
Bit rate mode : Constant
Bit rate : 256 Kbps
Channel(s) : 2 channels
Channel positions : Front: L R
Sampling rate : 48.0 KHz
Stream size : 218 MiB (11%)
Language : English
Audio #3
ID : 3
Format : AC-3
Format/Info : Audio Coding 3
Codec ID : A_AC3
Duration : 1h 58mn
Bit rate mode : Constant
Bit rate : 256 Kbps
Channel(s) : 2 channels
Channel positions : Front: L R
Sampling rate : 48.0 KHz
Stream size : 218 MiB (11%)
Language : English

















   Похожие торренты   Размер 
В этой теме нет новых непрочитанных сообщений. Формула 1: 1992, 10 этап, Гран При Германии / Formula 1: 1992, Round 10, Grosser Mobil 1 Preis von Deutschland (ФИА) [19

1.37 ГБ

В этой теме нет новых непрочитанных сообщений. Формула 1: 1998, 11 этап, Гран При Германии / Formula 1: 1998, Round 11, Grosser Mobil 1 Preis von Deutschland (FIA) [19

1.17 ГБ

В этой теме нет новых непрочитанных сообщений. Формула 1: 1999, 10 этап, Гран При Германии / Formula 1: 1999, Round 10, Grosser Mobil 1 Preis von Deutschland (ФИА) [19

700.62 МБ

В этой теме нет новых непрочитанных сообщений. Формула 1, 2000, 01 этап, Гран При Австралии, Мельбурн, гонка / Formula 1, 2000, round 01, Qantas Australian Grand Prix, Melbourne, race (Channel 9) [2000, автоспорт, TVRip]

1.36 ГБ

В этой теме нет новых непрочитанных сообщений. Формула 1, 2000, 03 этап, Гран При Сан-Марино, гонка / Formula 1, 2000, 20o Gran Premio Warsteiner di San Marino, race (РТР) [2000, автоспорт, VHSRip]

3.5 ГБ

В этой теме нет новых непрочитанных сообщений. Формула 1: 2010, 11 этап, Гран При Германии / 2010 Formula 1 Grosser Preis Santander von Deutschland, Round 11 (FIA) [20

4.06 ГБ

В этой теме нет новых непрочитанных сообщений. Формула 1: 1953, 07 этап, Гран При Германии, обзор / Formula 1: 1953, Round 07, XVI Grosser Preis von Deutschland, Revie

199.99 МБ




Вы не можете начинать темы
Вы не можете отвечать на сообщения
Вы не можете редактировать свои сообщения
Вы не можете удалять свои сообщения
Вы не можете добавлять вложения

Перейти:  
 Вход
ppkBB3cker v.2 © 2008-2014 @ PPK
[ Time : 0.028s | 19 Queries | GZIP : Off ]

Для правообладателей, рекламодателей и роскомнадзора: rstracker[собачка]yandex.ru
cron